#TITLE:Storm;
#SUBTITLE:;
#ARTIST:Jung You Kyoung;
#TITLETRANSLIT:Storm;
#SUBTITLETRANSLIT:;
#ARTISTTRANSLIT:Jung You Kyoung;
#CREDIT:;
#BANNER:Storm-bn.png;
#BACKGROUND:Storm-bg.png;
#LYRICSPATH:;
#CDTITLE:pm4cd.png;
#MUSIC:Storm.mp3;
#OFFSET:0.120;
#SAMPLESTART:74.900;
#SAMPLELENGTH:20.000;
#SELECTABLE:YES;
#BPMS:0.000=135.000;
#STOPS:;
#BGCHANGES:;
// cache tags:
#FIRSTBEAT:4.750;
#LASTBEAT:457.250;
#SONGFILENAME:Songs/Music V.I.P ^_^/Storm/Storm.sm;
#HASMUSIC:1;
#HASBANNER:1;
#MUSICLENGTH:207.568;
// end cache tags

//---------------dance-single - ----------------
#NOTES:
     dance-single:
     :
     Hard:
     13:
     0.891,1.000,1.000,0.159,1.000,951.000,291.000,33.000,0.000,34.000:
0000
0000
0000
0000
,
0000
0000
0000
0001
0000
0010
0000
0100
0000
0010
0000
0001
0000
0000
0000
0001
,
0000
0010
0000
0000
0000
0100
0000
0001
0000
1000
0000
0000
0000
0000
0000
0000
,
0000
0001
0000
0000
0000
0010
0000
0100
0000
1000
0000
0100
0000
0000
0000
0010
,
0000
1000
0000
0000
0000
0100
0000
0001
0000
0010
0000
0000
0000
0000
0000
0000
,
0000
0001
0000
0000
0000
0010
0000
1000
0000
0100
0000
0010
0000
0000
0000
0010
,
0000
0010
0000
0000
0000
0010
0000
0000
0000
0100
0000
0000
0000
0000
0000
0100
,
0000
0010
0000
0000
0000
0001
0000
0000
0000
0002
0000
0000
0000
0000
0000
0000
,
0000
0000
0000
0000
0000
0000
0000
0000
0000
1103
0000
0000
0000
1100
0000
1100
,
0000
0000
0000
0002
0000
0000
0000
0000
0000
0000
0000
1003
0000
0010
0100
0010
,
1000
0100
0010
0001
0100
0010
1000
0100
0010
1000
0000
0010
0000
0001
0010
0100
,
1000
0001
0100
0010
1000
0100
0001
0010
0100
0010
0000
1000
0000
0010
0100
0010
,
0001
0010
0001
1000
0010
0100
0001
0100
0010
1000
0000
0100
0000
0001
0010
0001
,
0010
0100
0010
0001
0100
0010
1000
0100
0001
0010
0000
2100
0000
0001
0000
0000
,
0010
0000
0000
0100
0000
0000
0001
0000
0000
3010
0000
0201
0000
1000
0000
0000
,
0010
0000
0000
0001
0000
0000
1000
0000
0000
0001
0300
1020
0000
0001
0000
0000
,
0100
0000
0000
0001
0000
0000
0100
0000
0000
1000
0030
0201
0000
1000
0000
0000
,
0010
0000
0000
0001
0000
0000
1000
0000
0000
0001
0300
1001
0000
0000
0000
0000
,
0000
0000
0000
0100
0010
0100
0000
0010
0100
0010
0000
1001
0000
0100
0000
1001
,
0000
0100
0010
1001
0000
0101
0000
1001
0000
0110
0000
1001
0000
0100
0000
1001
,
0000
0100
0010
1001
0000
0101
0000
1010
0000
0101
0000
1001
0000
0010
0000
1001
,
0000
0010
0100
1001
0000
1010
0000
1001
0000
0110
0000
0101
0000
0010
0000
1001
,
0000
0010
0100
1001
0000
0110
0000
1001
0000
1010
0000
1100
0000
0001
0000
1100
,
0000
0001
0010
1100
0000
1001
0000
0110
0000
1001
0000
0110
0000
0001
0000
0110
,
0000
0001
1000
0110
0000
0011
0000
1100
0000
0101
0000
1010
0000
0100
0000
1010
,
0000
0100
1000
0110
0000
0101
0000
1010
0000
0101
0000
0001
0010
1000
0000
0001
,
1000
0000
0000
0010
0000
0100
0000
0010
0100
0010
0100
0000
0000
0001
0000
1010
,
0000
0001
0000
0000
0000
0100
0000
1010
0000
0100
0000
0000
0000
0010
0000
0101
,
0000
0010
0000
0000
0000
1000
0000
0101
0000
1000
0000
0000
0000
0100
0000
1010
,
0000
0100
0000
0000
0000
0001
0000
1010
0000
0001
0000
0000
0000
1000
0000
0101
,
0000
1000
0000
0000
0000
1000
0000
0101
0000
1000
0000
0020
0000
1000
0000
0000
,
0000
1000
0000
0000
0000
1000
0000
0231
0000
0000
0000
0001
0000
0000
0000
0001
,
0000
0000
0000
0301
0000
0001
0000
0000
0000
0001
0000
1000
0000
0010
0000
1001
,
0000
0010
0000
1000
0000
0010
0000
1001
0000
0010
0000
1001
0000
0010
0100
0001
,
0000
0000
0000
0010
0000
0010
0000
0010
0100
0010
1000
1001
0000
0010
0000
1001
,
0000
0010
0000
1000
0000
0011
0000
1000
0000
0010
0000
1100
0000
0001
0000
1100
,
0000
0001
0000
1000
0000
0101
0000
1000
0000
0001
0000
0101
0000
0010
0000
0101
,
0000
0010
0000
0100
0000
1010
0000
0100
0000
0010
0000
0001
0000
1001
0000
1010
,
0000
1010
0000
0101
0000
0101
0010
1001
0010
1001
0100
0011
0000
0001
0000
1101
,
0000
0001
0000
0011
0000
0001
0000
1101
0000
0001
0000
1010
0000
1000
0000
1011
,
0000
1010
0000
1100
0000
1000
0000
1011
0000
1000
0000
0100
0000
0010
0000
1100
,
0000
1001
0000
0100
0000
1001
0000
1000
0000
1011
0000
0000
0000
1011
0000
1011
,
0000
0000
0000
0100
0000
0001
0000
0001
0010
0001
1000
1100
0000
0010
0000
1101
,
0000
0010
0001
1100
0000
0110
0000
1001
0000
1010
0000
0011
0000
0100
0000
0011
,
0000
0100
1000
0011
0000
0110
0000
0001
0000
1100
0000
0011
0000
1000
0000
0011
,
0000
1000
0100
0011
0000
1001
0000
0010
0000
1100
0000
0110
0000
1000
0000
0110
,
0000
1000
0001
1010
0000
1100
0000
0010
0000
1001
0000
0120
0000
0000
0000
1000
,
0000
0100
0000
0000
1000
0000
0000
0001
0030
0200
0000
0010
0000
0000
0001
0300
,
0000
2000
0000
0010
0000
0000
0100
3000
0000
0002
0000
0100
0000
1000
0000
0010
,
0003
1000
0000
0100
0000
0010
0000
0002
0000
0100
0000
1000
0000
0100
0000
1000
,
0000
0103
0000
1001
0000
0110
0000
1100
0000
0110
0000
1001
0000
0100
0000
1010
,
0000
0101
0000
1000
0000
0011
0000
1100
0000
0101
0000
0010
0000
1000
0000
0010
,
0000
1001
0000
0010
0000
1001
0000
0110
0000
1010
0000
0101
0000
1000
0000
1010
,
0000
0101
0000
1000
0000
0101
0000
1001
0000
0110
0000
0001
0000
1000
0000
0001
,
0000
1100
0000
0001
0000
1010
0000
1000
0000
0100
0000
2001
0000
0000
0000
0101
,
0000
0001
0000
0000
0000
0001
0000
0100
0000
0010
3000
0200
0000
0000
0000
1010
,
0000
0001
0000
0000
0000
0001
0000
1000
0300
0002
0000
1000
0000
0010
0000
0100
,
0000
0010
0000
1000
0000
0100
0000
0010
0000
0113
0000
0000
0000
0110
0000
0110
,
0000
0000
0000
0000
0000
0000
0001
0010
0100
0010
1100
0010
0100
0010
1001
0010
0100
0010
0101
1000
0100
0010
1101
0000
0000
0000
0010
0000
0000
0000
0001
0000
,
0000
0100
0000
1000
0000
0000
0001
0000
0000
0010
0000
0001
0000
0100
0000
0001
,
0000
0010
0000
1000
0000
0000
0010
0000
0000
0100
0000
0010
0000
0000
0000
0001
,
0000
0000
0000
0010
0000
0000
1000
0000
0000
0000
0000
0100
0000
0010
0000
1000
,
0000
0010
0000
0001
0000
0100
0000
0010
0000
0100
0000
0201
0000
0010
0000
0000
,
1000
0000
0000
0010
0000
0000
0001
0000
0000
1000
0300
0120
0000
0001
0000
0000
,
0100
0000
0000
0001
0000
0000
1000
0000
0000
0100
0030
0012
0000
0100
0000
0000
,
0010
0000
0000
1000
0000
0000
0100
0000
0000
0010
0003
1100
0000
0010
0000
1100
,
0000
0000
0010
0000
0000
0000
0001
0010
0100
0010
0100
1000
0010
0100
0010
0100
0001
0010
0100
1000
0001
0010
1101
0000
0000
0000
0010
0000
0000
0000
0000
0000
,
0001
0000
0000
1100
0000
0000
0010
0000
0000
0001
0000
0110
0000
0001
0000
0000
,
0100
0000
0000
1010
0000
0000
0100
0000
0000
0001
0000
0011
0000
1000
0000
0000
,
0100
0000
0000
1001
0000
0000
0010
0000
0000
0100
0000
0011
0000
1000
0000
0000
,
0001
0000
0000
1010
0000
0010
0100
1000
0000
1001
0110
1001
0000
0110
1000
0100
,
1000
0100
0010
0100
0010
1000
0010
0100
1000
0001
0010
1000
0010
0001
0100
1000
,
0010
0100
0010
0100
1000
0100
0010
0100
0010
0001
0010
0001
0010
0100
1000
0100
,
0010
0001
1000
0100
0010
0100
1000
0001
0010
0100
1000
0100
0010
0100
1000
0010
,
0100
0000
0001
0000
1000
0000
0001
0010
0100
1000
0001
0010
0100
1000
0001
0010
0100
1000
0001
0010
0100
1000
0202
0000
0000
0000
0000
0000
0000
0000
0000
0000
,
0000
0000
0000
1000
0010
1000
0000
1000
0010
1000
0000
1313
0000
0010
0000
0101
,
0000
1000
0100
1010
0000
0010
0000
0110
0000
1000
0000
0101
0000
1000
0010
1100
,
0000
0100
0000
1001
0000
0010
0000
1100
0000
0001
0000
1001
0000
0100
0010
0101
,
0000
0100
0000
0110
0000
0001
0000
1100
0000
1000
0000
0101
0000
0001
1000
0011
,
0000
0010
0000
1100
0000
0100
0000
0110
0000
0010
0000
1020
0000
1000
0000
0000
,
0000
1000
0000
0000
0000
1000
0000
0000
0030
0012
0000
0010
0000
0000
0000
0010
,
0000
0000
0000
0010
0000
0113
0000
0100
0000
0010
0000
1001
0000
0010
0000
0100
,
0000
0010
0000
1001
0000
0010
0000
0100
0000
0010
0000
1001
0000
0000
0000
0110
,
0000
0000
0000
1000
0000
1000
0000
1000
0100
1000
0010
1010
0000
0010
0000
1100
,
0000
0001
0000
0110
0000
0100
0000
1100
0000
1000
0000
0101
0000
0010
0000
0110
,
0000
0001
0000
1010
0000
0100
0000
0011
0000
0001
0000
0110
0000
1000
0000
0101
,
0000
0100
0000
0011
0000
0010
0000
1010
0000
1000
0000
0101
0000
0011
0000
0011
,
0000
1100
0000
1100
0010
0101
0010
1001
0010
1100
0010
1101
0000
1000
0000
1110
,
0000
1000
0000
1100
0000
1000
0000
1010
0000
1000
0000
1001
0000
0001
0000
0111
,
0000
0001
0000
0011
0000
0001
0000
0101
0000
0001
0000
1011
0000
0001
0000
1001
,
0000
0001
0000
0111
0000
0001
0000
0011
0000
1101
0000
0000
0000
1101
0000
1101
,
0000
0000
0000
0010
0000
0100
0000
0100
1000
0100
0001
0011
0000
1000
0000
0111
,
0000
0001
0010
1001
0000
1100
0000
0101
0000
1001
0000
0101
0000
0010
0000
0101
,
0000
1000
0010
0101
0000
0110
0000
1000
0000
0011
0000
0110
0000
0100
0000
0101
,
0000
0001
0100
1010
0000
1001
0000
0100
0000
0101
0000
1010
0000
0001
0000
1010
,
0000
0001
0010
1100
0000
0101
0000
0010
0000
1100
0000
0102
0000
0000
0000
0100
,
0000
0010
0000
0000
0000
1000
0000
0010
0003
2000
0000
0010
0000
0000
0001
0000
,
3000
0200
0000
0010
0000
0000
1000
0000
0300
0020
0000
1000
0000
0100
0000
0001
,
0030
0100
0000
1000
0000
0100
0000
0010
0000
2000
0000
0100
0000
0001
0000
0010
,
0000
3100
0000
1001
0000
0101
0000
0110
0000
1010
0000
1001
0000
0010
0000
1100
,
0000
0011
0000
1000
0000
0110
0000
0101
0000
1010
0000
0100
0000
0001
0000
0100
,
0000
1001
0000
0100
0000
0011
0000
0110
0000
1001
0000
1100
0000
0010
0000
0110
,
0000
0011
0000
1000
0000
1010
0000
1001
0000
0110
0000
0001
0000
0100
0000
0001
,
0000
1010
0000
0100
0000
0011
0000
0100
0000
0001
0000
1200
0000
0000
0000
1001
,
0000
1000
0000
0000
0000
0001
0000
0010
0000
1000
0300
0020
0000
0000
0000
0101
,
0000
0100
0000
0000
0000
1000
0000
0100
0030
2000
0000
0010
0000
0000
0000
0001
,
0000
0000
0010
0000
0000
0100
0000
0000
0010
0000
0000
3001
0000
0010
0000
0100
,
0000
0001
0000
0010
0000
0000
0001
0000
0000
1000
0000
0011
0000
1000
0000
0000
,
0100
0000
0000
0010
0000
0000
0001
0000
0000
0100
0000
1010
0000
0100
0000
0000
,
0010
0000
0000
0001
0000
0000
0010
0000
0000
1000
0011
0101
0000
0010
0100
1001
,
0010
0100
0001
0010
1000
0100
0001
0110
1000
0100
0000
1001
0000
0100
0001
0110
,
1000
0010
0100
0001
0100
0010
1000
0101
0010
0100
0000
1010
0000
0001
0100
0011
,
1000
0010
0100
0001
0100
0010
1000
0011
0100
0010
0000
1100
0011
1100
0011
1100
,
0011
0000
1100
0000
0011
0000
1000
0100
0010
0001
1000
0100
0010
0001
1000
0100
0010
0001
1000
0100
0010
0001
2200
0000
0000
0000
0000
0000
0000
0000
0000
0000
,
0000
0000
0000
0000
0000
3300
0000
0000
0000
0000
0000
0000
0000
0000
0000
0000
;

//---------------dance-single - ----------------
#NOTES:
     dance-single:
     :
     Medium:
     1:
     0.000,0.000,0.000,0.000,0.000,0.000,0.000,0.000,0.000,0.000:
0000
0000
0000
0000
;
